<?xml version="1.0" standalone="no"?>
<!DOCTYPE svg PUBLIC "-//W3C//DTD SVG 1.1//EN" "http://www.w3.org/Graphics/SVG/1.1/DTD/svg11.dtd" >
<svg xmlns="http://www.w3.org/2000/svg">
<metadata>
Created by FontForge 20120731 at Wed Oct 26 10:49:29 2016
 By admin
</metadata>
<defs>
<font id="iconfont" horiz-adv-x="1024" >
  <font-face 
    font-family="iconfont"
    font-weight="500"
    font-stretch="normal"
    units-per-em="1024"
    panose-1="2 0 6 3 0 0 0 0 0 0"
    ascent="896"
    descent="-128"
    x-height="792"
    bbox="2 -211 1084 896.568"
    underline-thickness="50"
    underline-position="-100"
    unicode-range="U+0078-E62F"
  />
<missing-glyph horiz-adv-x="374" 
d="M34 0v682h272v-682h-272zM68 34h204v614h-204v-614z" />
    <glyph glyph-name=".notdef" horiz-adv-x="374" 
d="M34 0v682h272v-682h-272zM68 34h204v614h-204v-614z" />
    <glyph glyph-name=".null" horiz-adv-x="0" 
 />
    <glyph glyph-name="nonmarkingreturn" horiz-adv-x="341" 
 />
    <glyph glyph-name="x" unicode="x" horiz-adv-x="1001" 
d="M281 543q-27 -1 -53 -1h-83q-18 0 -36.5 -6t-32.5 -18.5t-23 -32t-9 -45.5v-76h912v41q0 16 -0.5 30t-0.5 18q0 13 -5 29t-17 29.5t-31.5 22.5t-49.5 9h-133v-97h-438v97zM955 310v-52q0 -23 0.5 -52t0.5 -58t-10.5 -47.5t-26 -30t-33 -16t-31.5 -4.5q-14 -1 -29.5 -0.5
t-29.5 0.5h-32l-45 128h-439l-44 -128h-29h-34q-20 0 -45 1q-25 0 -41 9.5t-25.5 23t-13.5 29.5t-4 30v167h911zM163 247q-12 0 -21 -8.5t-9 -21.5t9 -21.5t21 -8.5q13 0 22 8.5t9 21.5t-9 21.5t-22 8.5zM316 123q-8 -26 -14 -48q-5 -19 -10.5 -37t-7.5 -25t-3 -15t1 -14.5
t9.5 -10.5t21.5 -4h37h67h81h80h64h36q23 0 34 12t2 38q-5 13 -9.5 30.5t-9.5 34.5q-5 19 -11 39h-368zM336 498v228q0 11 2.5 23t10 21.5t20.5 15.5t34 6h188q31 0 51.5 -14.5t20.5 -52.5v-227h-327z" />
    <glyph glyph-name="uniE600" unicode="&#xe600;" 
d="M557 383l266 264q9 9 9 22t-9.5 22.5t-22.5 9.5t-23 -9l-265 -264l-263 264q-9 9 -22.5 9t-23 -9t-9.5 -22.5t10 -22.5l263 -264l-265 -264q-10 -9 -10 -22.5t9.5 -22.5t22.5 -9t23 9l265 264l265 -267q10 -9 23 -9t22.5 9.5t9.5 22.5t-9 23z" />
    <glyph glyph-name="uniE601" unicode="&#xe601;" 
d="M942.5 590q-10.5 11 -25.5 11t-26 -11l-373 -377l-378 375q-11 11 -26 11t-25.5 -11t-10.5 -26t10 -26l402 -398h2v-1q1 0 1 -1q10 -10 25 -10q16 0 26 11l399 402q10 10 10 25t-10.5 26z" />
    <glyph glyph-name="uniE602" unicode="&#xe602;" 
d="M672 -16q-20 0 -34 14l-352 352q-14 14 -14 34t14 34l352 352q14 14 34 14t34 -14t14 -34t-14 -34l-318 -318l318 -318q14 -14 14 -34t-14 -34t-34 -14z" />
    <glyph glyph-name="uniE603" unicode="&#xe603;" 
d="M761 364l1 1t1 2q7 13 4.5 28.5t-14.5 26.5l-353 334q-15 14 -34.5 13.5t-33.5 -15t-13 -34.5t15 -34l317 -299l-316 -305q-14 -13 -14.5 -33t13.5 -35q14 -14 35 -14q19 0 33 13l350 338v1q1 1 1.5 1t0.5 1h1q1 2 6 10z" />
    <glyph glyph-name="uniE604" unicode="&#xe604;" 
d="M840 420h-292v292q0 15 -10.5 25.5t-25.5 10.5t-25.5 -10.5t-10.5 -25.5v-292h-292q-15 0 -25.5 -10.5t-10.5 -25.5t10.5 -25.5t25.5 -10.5h292v-292q0 -15 10.5 -25.5t25.5 -10.5t25.5 10.5t10.5 25.5v292h292q15 0 25.5 10.5t10.5 25.5t-10.5 25.5t-25.5 10.5z" />
    <glyph glyph-name="uniE605" unicode="&#xe605;" 
d="M939 264l-402 399l-1 1h-1v1q-11 10 -26 10t-26 -11l-398 -402q-11 -10 -11 -25.5t11 -26t26 -10.5t25 11l373 376l379 -374q10 -11 25 -11q16 0 26.5 11t10.5 26t-11 25z" />
    <glyph glyph-name="uniE606" unicode="&#xe606;" 
d="M282 652h185q19 0 19 19v32q0 19 -19 19h-185q-20 0 -20 -19v-25q0 -11 5.5 -18.5t14.5 -7.5zM512 82q82 0 137 55.5t55 137t-55 136.5t-137 55t-137 -55t-55 -136.5t55 -137t137 -55.5zM512 402q53 0 90.5 -37.5t37.5 -90t-37.5 -90.5t-90.5 -38t-90.5 38t-37.5 90
q0 54 36 91t92 37zM858 633h-352q-10 0 -18 -9t-8 -23q0 -10 8 -18t18 -8h352q19 0 31.5 -12.5t12.5 -32.5v-512q0 -19 -12.5 -31.5t-31.5 -12.5h-692q-19 0 -31.5 12.5t-12.5 31.5v512q0 20 12.5 32.5t31.5 12.5h96v0q10 0 18 8t8 17.5t-8 17.5t-18 8v0h-96
q-42 5 -72 -23.5t-30 -72.5v-512q0 -43 29.5 -72.5t72.5 -29.5h692q43 0 72.5 29.5t29.5 72.5v512q0 44 -29.5 73.5t-72.5 29.5zM813 543q-19 0 -32 -15.5t-13 -35.5h96q0 19 -16 35t-35 16z" />
    <glyph glyph-name="uniE607" unicode="&#xe607;" 
d="M980 -113q-15 0 -25 10l-300 310q-10 10 -9.5 24t9.5 24q96 98 96 236q0 91 -45 168.5t-122.5 122.5t-168.5 45t-168.5 -45t-123 -122.5t-45.5 -169t45.5 -169t123 -122.5t168.5 -45q64 0 124 24q13 5 26.5 -0.5t18.5 -19t-0.5 -26.5t-18.5 -18q-72 -29 -150 -29
q-110 0 -203.5 54.5t-148 148t-54.5 203.5t54.5 203t148 147.5t203.5 54.5t203.5 -54.5t147.5 -147.5t54 -203q0 -147 -93 -259l278 -287q10 -10 9.5 -24.5t-10.5 -24.5q-10 -9 -24 -9z" />
    <glyph glyph-name="uniE608" unicode="&#xe608;" 
d="M824 -124h-624q-38 0 -65.5 28t-27.5 67v445q0 39 27.5 67t65.5 28h31v95q0 119 82.5 202.5t199.5 83.5q108 0 188 -73t91 -181h-63q-11 81 -72.5 135.5t-143.5 54.5q-91 0 -155 -65t-64 -157v-95h530q38 0 65.5 -28t27.5 -67v-445q0 -39 -27.5 -67t-65.5 -28zM855 384
q0 26 -18.5 44.5t-43.5 18.5h-562q-25 0 -43.5 -18.5t-18.5 -44.5v-381q0 -26 18.5 -44.5t43.5 -18.5h562q25 0 43.5 18.5t18.5 44.5v381zM512 67q-52 0 -88.5 37t-36.5 89.5t36.5 90t88.5 37.5t88.5 -37.5t36.5 -90t-36.5 -89.5t-88.5 -37zM512 257q-26 0 -44 -18.5
t-18 -45t18 -45t44 -18.5t44 18.5t18 45t-18 45t-44 18.5z" />
    <glyph glyph-name="uniE609" unicode="&#xe609;" 
d="M737 249q-44 33 -95 53q29 18 53 43q89 89 89 214.5t-89 214.5t-214.5 89t-214.5 -89t-89 -214.5t89 -214.5q24 -25 53 -43v0q-69 -28 -125 -79q-59 -52 -95.5 -122t-45.5 -148q-1 -13 7 -23.5t21 -12.5h4q12 0 21 8t11 20q16 138 119 231q105 94 245 94q121 0 218 -72
q11 -8 24 -6t21 12.5t6 23.5t-13 21zM311 390q-70 70 -70 169.5t70 169.5t169.5 70t169.5 -70t70 -169.5t-70 -169.5q-45 -45 -105 -62q-37 -10 -75 -8q-28 1 -54 8v0q-60 17 -105 62zM940 82h-82v82q0 13 -9.5 22.5t-22.5 9.5t-22.5 -9.5t-9.5 -22.5v-82h-82
q-13 0 -22.5 -9.5t-9.5 -22.5t9.5 -22.5t22.5 -9.5h82v-82q0 -13 9.5 -22t22.5 -9t22.5 9t9.5 22v82h82q13 0 22 9.5t9 22.5t-9 22.5t-22 9.5z" />
    <glyph glyph-name="uniE60A" unicode="&#xe60a;" 
d="M895 830h-383h-255q-53 0 -90.5 -37.5t-37.5 -90.5v-573h64v573q0 29 17.5 46.5t46.5 17.5h255h383q28 0 45.5 -17.5t17.5 -46.5v-637q0 -29 -17.5 -46.5t-45.5 -17.5h-766q-28 0 -45.5 17.5t-17.5 46.5v319h-64v-319q0 -53 37.5 -90.5t89.5 -37.5h766q52 0 89.5 37.5
t37.5 90.5v637q0 53 -37.5 90.5t-89.5 37.5zM895 830zM448 639v-128h-127v128h127zM512 702h-255v-255h255v255v0zM512 702zM576 639h319v-64h-319v64zM576 639zM576 511h319v-64h-319v64zM576 511zM257 320h638v-64h-638v64zM257 320zM257 192h638v-63h-638v63zM257 192z
" />
    <glyph glyph-name="uniE60B" unicode="&#xe60b;" 
d="M517.5 685q-120.5 0 -205.5 -84t-85 -203t85 -203t205.5 -84t205 84t84.5 203t-84.5 203t-205 84zM517.5 172q-94.5 0 -161.5 66t-67 160t67 160t161.5 66t161.5 -66t67 -160t-67 -160t-161.5 -66zM521 759q13 0 21.5 9t8.5 21v74q0 12 -8.5 21t-21.5 9t-22 -9t-9 -21
v-74q0 -12 9 -21t22 -9zM264 657q13 0 21.5 8.5t8.5 21t-8 21.5l-53 52q-9 9 -21.5 9t-21.5 -9t-9 -21.5t9 -21.5l52 -52q9 -8 22 -8zM155 465h-74q-12 0 -21 -9t-9 -21.5t9 -21.5t21 -9h74q13 0 22 9t9 21.5t-9 21.5t-22 9zM953 458h-74q-12 0 -21 -9t-9 -21.5t9 -21.5
t21 -9h74q13 0 22 9t9 21.5t-9 21.5t-22 9zM775.5 652q12.5 0 21.5 9l53 52q9 8 9 20.5t-9 21.5t-22 9t-21 -9l-53 -51q-9 -9 -9 -21.5t9 -21.5t21.5 -9zM630 51h-225q-13 0 -22 -9t-9 -21.5t9 -21.5t22 -9h225q13 0 22 9t9 21.5t-9 21.5t-22 9zM589 -64h-144q-12 0 -21 -9
t-9 -21.5t9 -21.5t21 -9h144q13 0 22 9t9 21.5t-9 21.5t-22 9zM517.5 685q-120.5 0 -205.5 -84t-85 -203t85 -203t205.5 -84t205 84t84.5 203t-84.5 203t-205 84zM517.5 172q-94.5 0 -161.5 66t-67 160t67 160t161.5 66t161.5 -66t67 -160t-67 -160t-161.5 -66zM521 759
q13 0 21.5 9t8.5 21v74q0 12 -8.5 21t-21.5 9t-22 -9t-9 -21v-74q0 -12 9 -21t22 -9zM264 657q13 0 21.5 8.5t8.5 21t-8 21.5l-53 52q-9 9 -21.5 9t-21.5 -9t-9 -21.5t9 -21.5l52 -52q9 -8 22 -8zM155 465h-74q-12 0 -21 -9t-9 -21.5t9 -21.5t21 -9h74q13 0 22 9t9 21.5
t-9 21.5t-22 9zM953 458h-74q-12 0 -21 -9t-9 -21.5t9 -21.5t21 -9h74q13 0 22 9t9 21.5t-9 21.5t-22 9zM775.5 652q12.5 0 21.5 9l53 52q9 8 9 20.5t-9 21.5t-22 9t-21 -9l-53 -51q-9 -9 -9 -21.5t9 -21.5t21.5 -9zM630 51h-225q-13 0 -22 -9t-9 -21.5t9 -21.5t22 -9h225
q13 0 22 9t9 21.5t-9 21.5t-22 9zM589 -64h-144q-12 0 -21 -9t-9 -21.5t9 -21.5t21 -9h144q13 0 22 9t9 21.5t-9 21.5t-22 9z" />
    <glyph glyph-name="uniE60C" unicode="&#xe60c;" horiz-adv-x="1208" 
d="M593.5 104q-106.5 0 -181.5 75.5t-75 182.5t75 183t181.5 76t181.5 -76t75 -183t-75 -182.5t-181.5 -75.5zM805 362.5q0 88.5 -62 151t-149.5 62.5t-150 -62.5t-62.5 -151t62.5 -151t150 -62.5t149.5 62.5t62 151zM593 220q-58 0 -99 41t-41 99.5t41 99.5t99 41t99 -41
t41 -99.5t-41 -99.5t-99 -41zM592.5 457q-39.5 0 -67.5 -28.5t-28 -68t28 -67.5t67.5 -28t67.5 28t28 67.5t-28 68t-67.5 28.5zM1062 312q9 0 15.5 -6.5t6.5 -15.5v-209q0 -49 -35 -84t-84 -35h-756q-49 0 -84 35t-35 84v550q0 49 35 84t84 35h230q1 23 17.5 39.5t39.5 16.5
h191q23 0 39.5 -16.5t16.5 -39.5h222q49 0 84 -35t35 -84q0 -9 -6.5 -15.5t-15.5 -6.5t-15.5 6.5t-6.5 15.5q0 31 -22 53t-53 22h-756q-31 0 -53 -22t-22 -53v-550q0 -31 22 -53t53 -22h756q31 0 53 22t22 53v209q0 9 6.5 15.5t15.5 6.5z" />
    <glyph glyph-name="uniE60D" unicode="&#xe60d;" 
d="M809 807h-11q-16 35 -47 58q-41 31 -92 31h-208q-51 0 -92 -31q-31 -23 -47 -58h-60v32q0 12 -8.5 21t-20.5 9t-20.5 -9t-8.5 -21v-32q-43 -2 -73 -33.5t-30 -75.5v-402q0 -45 32 -76.5t76 -31.5h284v-99l-202 -167q-10 -8 -11 -20t7 -21q9 -10 22 -10q11 0 19 6l165 137
v-111q0 -12 8.5 -20.5t20.5 -8.5t20.5 8.5t8.5 20.5v114l167 -138q8 -7 18 -7q14 0 23 11q7 9 6 21t-10 20l-204 168v96h268q45 0 77 31.5t32 76.5v402q0 45 -32 77t-77 32zM451 838h208q42 0 70 -31h-348q28 31 70 31zM199 748h610q21 0 35.5 -14.5t14.5 -35.5v-80h-170
q-29 43 -76 68.5t-101 25.5t-101 -25.5t-76 -68.5h-186v80q0 21 15 35.5t35 14.5zM512 654q65 0 110.5 -46t45.5 -110.5t-45.5 -110.5t-110.5 -46t-110.5 46t-45.5 110.5t45.5 110.5t110.5 46zM809 246h-610q-20 0 -35 14.5t-15 35.5v264h158q-10 -31 -10 -63q0 -88 63 -151
t152 -63t152 63t63 151q0 32 -10 63h142v-264q0 -21 -14.5 -35.5t-35.5 -14.5z" />
    <glyph glyph-name="uniE60E" unicode="&#xe60e;" 
d="M943 332l-96 332q0 2 -1.5 5.5t-6.5 13t-11 17t-17 14.5t-23 9q-2 0 -16 2.5t-20.5 3t-22.5 3t-25 3t-23.5 1.5t-24.5 0.5t-21.5 -1.5t-19.5 -3.5t-13 -5.5l-12 64q-51 -1 -62 -1q-12 0 -25 -5q-51 -23 -102.5 -33t-87.5 -8.5t-64.5 6.5t-42.5 11l-14 6l-56 1q1 -3 2 -8
l-29 -4l-3 8l-43 -13l230 -774l43 12l-104 351l24 6q7 -17 14 -30.5t10 -17.5l4 -5q9 -4 26 -9.5t66 -13.5t94 -4q12 1 26 4v-55q1 -2 2 -5.5t9 -9t20 -4.5q10 0 55 23t87 30q55 9 117.5 8.5t91.5 -12.5l54 -20q2 0 6 -0.5t10.5 4t7.5 16.5q1 8 -0.5 20t-3.5 23.5t-4 21.5
t-4 17zM220 381l-100 337l29 4q70 -254 89 -323q2 -5 4 -12zM318 334q-21 10 -32 48q-5 16 -28 99t-44 157l-20 75q8 -3 21.5 -7t54.5 -9.5t79 -1.5t77 14t59 18l20 8q5 3 12.5 5.5t21.5 1t17 -15.5q8 -37 45 -165t60 -187q-104 -45 -191.5 -53t-151.5 13zM873 306
q-113 29 -204 -11q-39 -16 -65.5 -26t-33.5 -11l-7 -1q-2 -1 -5.5 -0.5t-9.5 6t-7 17.5q38 11 81 29.5t67 30.5l24 13q-75 249 -95 310q-2 7 -5 16l1 1q72 2 106 -3q66 -8 72 -24q2 -5 28 -87.5t50 -161.5l25 -80q0 -1 0.5 -2.5t0.5 -6t-2 -6.5t-7 -4t-14 1z" />
    <glyph glyph-name="uniE60F" unicode="&#xe60f;" horiz-adv-x="1068" 
d="M836 731l-273 -241q-71 51 -100.5 74t-108.5 87l-237 -197q-10 -10 -22 -18.5t-19.5 -13.5t-22 -14.5t-21.5 -13.5v-113q38 9 48.5 14.5t36.5 29.5q13 13 23 21.5t15.5 12.5t17.5 13.5t23 17.5q21 17 73 63.5t85 68.5q38 -20 112.5 -83t96.5 -78l370 306l93 -100
q1 54 4 135q1 31 2 45t0 35.5t-1 28.5t-6 20t-9 15.5t-15.5 9t-20 6.5t-28.5 1.5t-35 1t-45 -1.5q-79 -3 -132 -3q16 -24 29 -41.5t20 -26.5t22 -28t25 -33zM772 474v-419h161v531l-21 -10q-11 -6 -14.5 -7.5t-10 -6t-13 -10.5t-17.5 -18q-11 -10 -21.5 -22.5t-15 -17
t-16 -10t-32.5 -10.5zM273 377l2 -321h7q51 -1 152 -1v339q-16 10 -31 21.5t-21.5 15.5t-13.5 9t-10 3.5t-7 -2.5t-10 -8t-13.5 -14t-22 -18.5t-32.5 -23.5zM531 55h161q0 43 3 124q5 145 -7 173q-12 31 -48 -1q-92 -82 -100 -56l-1 -2q-3 -8 -6 -17zM32 184v-129h161v242
q-24 -7 -32.5 -10.5t-22.5 -16.5t-26 -21q-14 -11 -38 -32t-42 -33v0z" />
    <glyph glyph-name="uniE610" unicode="&#xe610;" 
d="M695 784q-105 0 -182 -72q-77 72 -183 72q-110 0 -187.5 -76t-77.5 -184q0 -43 15 -89t41 -87.5t60 -82.5t71 -76.5t74 -67.5t70.5 -57t59.5 -43t42 -28l15 -10q9 6 25 16.5t63 44t89 68.5t94 86.5t89 101.5t62.5 110t25.5 114q0 108 -78 184t-188 76z" />
    <glyph glyph-name="uniE611" unicode="&#xe611;" 
d="M669 -64q-3 11 -12.5 18t-20.5 7h-74v126q-29 -5 -57.5 -5t-57.5 5v-126h-73q-12 0 -21.5 -7t-12.5 -18l-26 -94q-5 -17 5.5 -31t28.5 -14h314q14 0 24.5 10.5t10.5 24.5q0 7 -3 14zM857 683q-14 4 -29 4q-6 0 -13 -1v93q0 14 -9.5 23.5t-23.5 9.5h-555q-14 0 -23.5 -9.5
t-9.5 -23.5v-93q-7 1 -13 1q-15 0 -29 -4q-57 -15 -83.5 -78t-7.5 -137q17 -64 61.5 -104.5t95.5 -40.5h10q3 -7 8 -16l1 -2q6 -12 13 -22q1 -2 2 -3q7 -11 15 -21v-1q17 -21 37 -39v-1q9 -8 20 -17q1 0 1 -1q44 -33 96 -49q13 -4 26 -7q14 -3 28 -4h1q15 -2 28.5 -2t28.5 2
h1q13 1 28 4v0q13 3 26 7h1q51 16 95 49l1 1q10 8 20 17v1q20 18 37 39v1q8 10 15 21q2 2 2 3q7 10 13 22q1 1 1 2q5 8 8 16h11q50 0 94.5 40.5t61.5 104.5q19 74 -7.5 137t-83.5 78zM115 482q-13 51 2 94.5t49 52.5q7 2 15 2q6 0 13 -1v-155q0 -13 2 -28v-4q1 -12 3 -26
l1 -1v-3q2 -14 5 -26l1 -3q1 -3 1 -5q-29 5 -55 34t-37 69zM674 546l-92 -70l33 -109q3 -8 -3 -12q-3 -2 -6.5 -2t-5.5 2l-95 66l-96 -66q-6 -4 -12 0t-3 12l33 109l-92 70q-6 4 -3.5 11.5t9.5 7.5l116 2l38 109q2 7 9.5 7t9.5 -7l38 -109l116 -2q8 0 10 -7.5t-4 -11.5z
M894 482q-11 -40 -36.5 -69t-55.5 -34q0 2 1 5l1 3q3 13 5 26q1 1 1 4q2 14 3 26q0 1 1 4q1 15 1 28v155q7 1 13 1q8 0 15 -2q34 -9 49.5 -52.5t1.5 -94.5z" />
    <glyph glyph-name="uniE612" unicode="&#xe612;" 
d="M386 174q0 50 14.5 95t40.5 83t62 68q35 29 79 47q2 7 4 12l4 12q3 11 4 11q8 3 15 10q7 5 13 16q5 10 7 29q2 14 0 23t-6 15q-3 7 -9 11q0 35 -5 68q-4 31 -14 62q-10 33 -32 60q-9 12 -26 24t-37 21q-22 9 -45 14q-24 6 -49 6q-19 0 -39.5 -3t-42.5 -11q-21 -9 -40 -24
q-20 -14 -37 -38t-26 -56q-8 -31 -12 -58q-3 -32 -3 -64q-8 -9 -11 -18q-4 -9 -5 -21t3.5 -26.5t10 -21.5t11.5 -12q5 -4 11 -6q5 -15 9 -26q5 -12 10 -21q5 -11 12 -17q15 -12 26 -23q12 -12 13 -31q1 -13 1 -24t-4 -21t-14 -21q-9 -10 -27 -22q-16 -9 -34 -15
q-18 -7 -37 -12q-24 -7 -38 -11q-19 -7 -34 -16q-15 -10 -25 -23q-11 -14 -14 -35q-9 -55 -4.5 -90t14.5 -42q4 -4 24 -8q22 -5 47 -8q23 -4 62 -9q38 -4 69 -6q36 -3 67 -5q34 -2 57 -2h23q-20 36 -31.5 76t-11.5 84zM947 276.5q-21 48.5 -57 84.5q-36 37 -84 58
q-49 21 -104 21t-104 -21q-48 -21 -84 -57.5t-57 -85t-21 -103.5t21 -103q21 -49 57 -85t84.5 -57t103.5 -21t104 21q48 21 84 57t57 84.5t21 103.5t-21 103.5zM644 222h1l-23 -70l-94 70h116zM712 87l62 43l28 -105zM789 157l-107 -76l-86 -56l35 111h1l1 4l1 3h-1l29 84
l1 4l39 104l49 -113h125z" />
    <glyph glyph-name="uniE613" unicode="&#xe613;" 
d="M752 -62q10 0 17 8t7 19v9h1v18q0 119 -61 216.5t-163 141.5l-16 7l14 9q49 36 76.5 92t27.5 119q0 105 -68.5 179.5t-165.5 74.5t-166 -74.5t-69 -179.5q0 -63 28 -119t77 -92l13 -9l-15 -7q-102 -44 -163.5 -141.5t-61.5 -216.5q0 -8 1 -18l1 -10q0 -11 7 -19t17 -8
q7 0 331 0.5t331 0.5zM692 334q95 -12 156 -90q62 -78 62 -186q0 -11 7 -19t18 -8q10 0 17 7.5t8 18.5v1v1q0 99 -51 180t-136 117l-16 7l14 10q41 29 64 75.5t23 99.5q0 73 -41.5 130t-107.5 74h-3h-1h-1q-10 0 -17.5 -8t-7.5 -20q0 -10 6 -18t16 -10h1h1q2 -1 5 -2h1
q43 -16 69.5 -56t26.5 -88q0 -55 -32 -97t-82 -53h-1h-2q-12 -1 -20 -10.5t-8 -22.5t8 -22.5t20 -10.5h3h1zM692 334z" />
    <glyph glyph-name="uniE614" unicode="&#xe614;" 
d="M214 559h-112q-15 0 -26 -11.5t-11 -26.5v-550h186v550q0 16 -11 27t-26 11zM450 797h-112q-15 0 -26 -12t-11 -28v-786h186v786q0 16 -11 28t-26 12zM686 359h-112q-15 0 -26 -12t-11 -29v-347h186v347q0 17 -11 29t-26 12zM922 559h-112q-15 0 -26 -11.5t-11 -26.5
v-550h186v550q0 16 -11 27t-26 11z" />
    <glyph glyph-name="uniE615" unicode="&#xe615;" 
d="M659 324l76 -36q17 -7 25 -23q74 74 136 203q59 125 72 226.5t-28 121t-112 -55t-130 -198.5q-62 -129 -73 -233q6 1 10 1q13 0 24 -6zM592 182l76 -36q8 -3 17 -3q21 0 33 18q-66 45 -147 72q-5 -14 0.5 -29t20.5 -22zM602 296q9 -3 21 -8q50 -19 106 -51q12 -7 20 -12
q5 14 -1 28t-20 21l-76 36q-8 4 -17 4q-6 0 -12 -2q-13 -4 -21 -16zM580 252q30 -11 58 -23q20 -9 35 -17q28 -15 55 -33l13 28q-14 8 -30 17q-46 26 -86 42q-15 6 -33 12zM181 303q28 17 38.5 40.5t7.5 44t-18 47t-29 44t-35 42t-28 33.5q-14 18 -35 7q-19 -11 -8 -29
q0 -1 1 -2q8 -11 26.5 -30.5t32 -34t26 -35t14.5 -36.5t-8.5 -34t-36.5 -33q-27 -14 -36.5 -36t6.5 -49q6 -10 17 -17.5t28.5 -12t26.5 -6.5t31.5 -4.5t23.5 -3.5q39 -5 79 -21q-5 -2 -32 -12q-14 -6 -25.5 -10.5t-29 -13t-30 -17t-25.5 -20.5t-19 -24t-6 -27.5t8 -32.5
q10 -17 26.5 -29.5t33 -19t43.5 -10t43 -4t45 -1.5h9q-1 2 -2 5q-3 11 6 19.5t34 22.5q-9 0 -61 3t-79 8q-68 12 -43 51q18 27 62 45q4 1 13.5 4.5t18.5 6.5t20.5 7.5t20.5 9.5t17 11.5t12 13.5t3.5 15.5t-7.5 18.5t-23.5 19t-27 12t-35.5 9t-27 6q-12 3 -35.5 6.5
t-33.5 5.5q-16 3 -23.5 7.5t-9 8t4.5 9.5t11.5 10t18.5 13zM406 -4q-47 -25 -46 -31q0 -3 13 -3t40 4q39 5 109 18q54 10 87 25.5t42.5 32.5t8 34.5t-14 33.5t-25.5 28.5t-23 20t-11 7.5q-19 7 -38 7q-50 0 -74.5 -41t-0.5 -79q6 -9 -12.5 -23t-54.5 -34z" />
    <glyph glyph-name="uniE616" unicode="&#xe616;" 
d="M510 750q91 0 174 -35.5t143 -95.5t95.5 -143t35.5 -174t-35.5 -174t-95.5 -143t-143 -95.5t-174 -35.5t-174 35.5t-143 95.5t-95 143t-35 174t35 174t95 143t143 95.5t174 35.5z" />
    <glyph glyph-name="uniE617" unicode="&#xe617;" 
d="M654.5 471q-92.5 0 -157.5 -65t-65 -157.5t65 -158t157.5 -65.5t157.5 65.5t65 158t-65 157.5t-157.5 65zM756 178q-10 -68 -80 -73v-41h-46v41q-34 5 -79 19l14 54q41 -16 72 -19q53 -6 56 26q2 14 -19.5 26.5t-48.5 22.5t-49 29.5t-21 44.5q-2 38 20.5 58.5t56.5 23.5
v43h46v-41q34 -1 66 -15l-12 -51q-39 15 -66 15q-49 0 -51 -22q0 -17 15 -26.5t40.5 -15.5t29.5 -7q23 -10 37 -24q26 -25 19 -68zM421 751q-114 0 -194 -40t-80 -96.5t80 -96.5t194 -40t194.5 40t80.5 96.5t-80.5 96.5t-194.5 40zM546 572q-13 -42 -98 -45v-25h-57v25
q-42 3 -97 12l17 33q50 -10 88 -12q66 -4 70 16q1 6 -11 11.5t-31.5 9.5t-42 9t-42 11t-32 14.5t-12.5 19.5q-2 23 26 35.5t69 14.5v26h57v-25q42 0 82 -9l-16 -31q-48 9 -81 9q-61 0 -62 -13q0 -11 18.5 -17t50 -9t35.5 -4q28 -6 46 -15q32 -15 23 -41zM508 443
q-43 -7 -87 -7q-97 0 -171.5 30t-95.5 76q-7 -15 -7 -30q0 -56 80 -96t194 -40h22q26 40 65 67zM688 481q8 16 8 31t-7 30q-15 -32 -58 -57h5h6q23 0 46 -4zM421 347q-97 0 -171.5 30t-95.5 76q-7 -16 -7 -31q0 -54 76 -93.5t185 -41.5q5 31 19 60h-3h-3zM405 257
q-92 3 -161.5 32.5t-89.5 73.5q-7 -15 -7 -30q0 -55 76.5 -94.5t187.5 -41.5q-6 26 -6 51v4v2v3zM154 273q-7 -15 -7 -30q0 -56 80 -96t194 -40q14 0 30 1q-20 27 -31 60q-97 0 -171 30t-95 75zM475 81q-28 -3 -54 -3q-97 0 -171.5 30t-95.5 76q-7 -15 -7 -30q0 -57 80 -97
t194 -40q65 0 124 15q-39 18 -70 49z" />
    <glyph glyph-name="uniE618" unicode="&#xe618;" horiz-adv-x="1025" 
d="M710 288v-1h-1l-111 -111h112v-43h-155l-58 -58l-154 -35l20 93h-193v43h203l4 19l92 92h-299v43h342l111 110h-453v43h496l152 152v67v12v48q0 30 -17.5 51t-42.5 21h-636q-25 0 -42.5 -21t-17.5 -51v-756q0 -30 17.5 -51t42.5 -21h636q25 0 42.5 21t17.5 51v390z
M170 637h540v-43h-540v43zM953 601l-47 48q-10 10 -24.5 10t-24.5 -10l-26 -27l94 -94l27 27q10 10 10.5 23t-9.5 23zM409 201l94 -94l412 411l-95 94zM801 519l21 -20l-291 -291l-20 21zM375 71l116 23l-93 93z" />
    <glyph glyph-name="uniE619" unicode="&#xe619;" 
d="M494 236l3 -103q17 -2 20 -2t7 0.5t5 0.5l2 95q-2 1 -5.5 1.5t-5.5 1.5q-8 2 -26 6zM423 357q-1 -12 7 -22q3 -5 9 -9l3 62q-18 -14 -19 -31zM510 405h-5q-2 0 -5 -0.5t-5 -0.5l-1 -97l24 -6q1 0 5.5 -1.5t7.5 -1.5l-1 105q-17 2 -20 2zM754 526q-15 14 -51.5 39
t-63.5 46.5t-32 33.5q-1 3 -2 7q15 2 15 12q0 5 -5 8.5t-13 3.5h-1q1 11 21 44t34 79q-31 9 -50.5 12.5t-36 0.5t-25.5 -7t-30 -16t-38 -20q-19 -4 -34.5 4.5t-24 19t-27 14.5t-43.5 -9q21 -40 47 -75t29 -47q-15 -1 -15 -11.5t15 -12.5l-1 -3q-4 -13 -31.5 -34.5t-66 -47.5
t-54.5 -41q-20 -18 -44 -57t-44.5 -90.5t-35 -107.5t-13 -110t18 -98t62.5 -72t116 -31l182 -5q21 0 182 5q70 3 116 31t62.5 72t18 98t-13 110t-35 107.5t-44.5 90.5t-44 57zM665 194q-3 -27 -22 -51q-19 -22 -52 -36q-3 -1 -9 -2.5t-7 -2.5l-2 -33q-1 -7 -7.5 -12
t-15.5 -5t-15.5 4.5t-6.5 11.5v27q-1 0 -4.5 -0.5t-5.5 -0.5q-8 0 -20 1l1 -27q0 -7 -6.5 -11.5t-15.5 -4.5t-16 5.5t-7 11.5l-3 34q-23 7 -38 17q-35 26 -51 80q-2 11 5.5 18.5t18.5 6.5q12 -1 21.5 -10t10.5 -21q6 -26 29 -43l-7 102q-15 5 -24 10q-27 13 -39 36
q-12 22 -11 47q2 24 13.5 43.5t31.5 33.5q12 9 35 17l4 36q0 8 7.5 13.5t17 6t16 -4.5t6.5 -12l-1 -30h5h5q6 0 23 -1v31q0 7 6.5 12t16.5 4.5t17 -6t8 -12.5l3 -39q1 0 2 -0.5t2 -0.5q33 -13 50 -33q15 -19 24 -58q1 -12 -7 -20.5t-20 -7.5q-13 0 -22.5 9t-9.5 22
q-3 15 -15 28l3 -95q21 -6 32 -11q25 -10 37 -30t9 -47zM589 211q-1 0 -5 2l-5 -68l1 1h2q21 16 23 36q2 19 -16 29z" />
    <glyph glyph-name="uniE61A" unicode="&#xe61a;" 
d="M834 144h-165q-7 0 -13 -5.5t-6 -13.5t6 -13.5t13 -5.5h165q8 0 13.5 5.5t5.5 13.5t-5.5 13.5t-13.5 5.5zM834 55h-165q-7 0 -13 -5.5t-6 -13.5t6 -13.5t13 -5.5h165q8 0 13.5 5.5t5.5 13.5t-5.5 13.5t-13.5 5.5zM878 245h-91q-74 103 -199 138q46 35 73 97t27 136
q0 108 -55.5 159t-146 51t-146.5 -51t-56 -159q0 -74 27 -136t73 -97q-110 -31 -181 -116t-71 -172q0 -23 6 -41t14.5 -32t25.5 -24.5t33 -17.5t42.5 -12t48 -8t56.5 -4t61 -1.5t67 -0.5h73q22 -38 66 -38h253q31 0 53.5 22t22.5 54v177q0 31 -22.5 53.5t-53.5 22.5zM486 93
q-6 2 -14 5.5t-22 13.5t-14 20q0 30 16 109.5t34 79.5t34.5 -79.5t16.5 -109.5q-1 -21 -51 -39zM916 5q0 -21 -15 -36t-36 -15h-227q-21 0 -36 15t-15 36v151q0 21 15 36t36 15h227q21 0 36 -15t15 -36v-151z" />
    <glyph glyph-name="uniE61B" unicode="&#xe61b;" 
d="M804 218v159q-5 0 -22 0.5t-26 0.5q0 -51 -0.5 -78t-0.5 -79v-70q0 -31 -1 -37q-4 -21 -13 -35q-19 -30 -54 -40q-8 -2 -40 -2h-61h-281h-71q-33 0 -38 1q-23 5 -40 18q-24 19 -33 56q-1 6 -1 38v68v307v75q0 35 1 40q5 26 21 46q19 24 56 31h12h13h46h291q2 23 3 32
q1 3 2 8.5t1 8.5h-287q-8 0 -25 0.5t-28 0.5t-24.5 -1t-22.5 -3q-48 -12 -74 -46q-23 -29 -31 -65q-3 -11 -3 -52v-76v-300v-73q0 -37 2 -47q12 -55 48 -83q29 -23 64 -31q9 -2 49 -2h84h254h66q47 0 64 5q50 16 77 59q15 23 21 55q2 9 2 43v68zM536 231h-176h-51
q-21 0 -25 -2q-10 -4 -14 -14t2 -20q3 -5 18 -11h246h37q17 0 21 2q9 3 13 13q3 6 2 10q-1 8 -5.5 13t-13.5 7t-14.5 2.5t-20 0t-19.5 -0.5zM609 356q-2 14 -11 18t-28 4h-34h-176h-51q-21 0 -26 -1q-9 -4 -13 -14t2 -21q3 -5 18 -11h246q5 0 17 -0.5t18 -0.5t14.5 1
t13.5 4.5t8 9.5q3 7 2 11zM926 737q-2 -1 -5.5 -1.5t-5.5 -1.5l-11 -11l-1 -1l-1 -1l-1 -1l-1 -1l-1 -1l-1 -1l-1 -2l-1 -1l-1 -1l-1 -1l-1 -1l-1 -1l-1 -1l-1 -1l-1 -1l-1 -1l-1 -1l-1 -1l-1 -1l-1 -1q-10 -10 -28 -29t-26 -27q-33 -35 -75 -79.5t-75 -79.5h-1
q-17 19 -52 55.5t-53 54.5q-1 1 -4 5t-5 5.5t-5.5 4.5t-5.5 4l-8 1q-5 1 -8 -2q-8 -2 -11.5 -7t-4.5 -10.5t0 -9.5t4.5 -9.5t5.5 -8t7 -7.5l6 -6q15 -15 45.5 -47t45.5 -47q2 -2 8.5 -9.5t10.5 -12t10.5 -9t11.5 -5.5q4 0 7.5 0.5t6.5 2.5t4.5 3.5t4.5 5t4 4.5q9 9 27 28
t28 29q39 40 93 97t93 99q10 13 3.5 27t-22.5 14zM455 488q-17 26 -21 37h-87h-43q-18 0 -19 -1q-10 -3 -14.5 -13.5t0.5 -22.5q2 -3 4 -5l3 -3q1 -1 5 -2.5t6 -2.5l174 1h1z" />
    <glyph glyph-name="uniE61C" unicode="&#xe61c;" 
d="M501 209q127 0 216 89.5t89 215.5t-89 215.5t-215.5 89.5t-216 -89.5t-89.5 -215.5t89.5 -215.5t215.5 -89.5v0v0zM373 336q-42 30 -66.5 77t-24.5 101q0 91 64 155.5t155 64.5t155.5 -64.5t64.5 -155.5q0 -54 -24.5 -100.5t-66.5 -77.5l-14 96q27 37 27 84q0 59 -42 101
t-101.5 42t-101.5 -42t-42 -101q0 -50 31 -88zM502 209q31 0 66.5 8t55.5 16l19 9l38 -257l-177 82l-182 -82l38 257q71 -33 142 -33v0z" />
    <glyph glyph-name="uniE61D" unicode="&#xe61d;" 
d="M307 843q-1 3 -1 4v-4h1zM306 838l87 -113h238q4 3 10 9t21.5 21t26 30t20 30.5t7.5 28t-16 18.5q-7 4 -21 9.5t-67 15t-117 9.5q-44 0 -79.5 -5t-54 -11.5t-32 -15t-17 -12.5t-5.5 -9q0 -2 1 -3zM631 691h-238q-93 -31 -171.5 -105.5t-124.5 -171.5t-46 -193
q0 -178 110 -263.5t351 -85.5t351 85.5t110 263.5q0 96 -46 193t-124.5 171.5t-171.5 105.5zM654 276v-68h-102v-34h102v-69l-102 1v-69h-69v70h-102v67h102v34h-102v68h88l-88 170h68l69 -170l68 170h68l-85 -170h85z" />
    <glyph glyph-name="uniE61E" unicode="&#xe61e;" 
d="M161 384zM64 384q0 40 28 68.5t68.5 28.5t68.5 -28.5t28 -68.5t-28 -68.5t-68.5 -28.5t-68.5 28.5t-28 68.5zM863 384zM767 384q0 40 28 68.5t68.5 28.5t68.5 -28.5t28 -68.5t-28 -68.5t-68.5 -28.5t-68.5 28.5t-28 68.5zM513 384zM416 384q0 40 28.5 68.5t68.5 28.5
t68 -28.5t28 -68.5t-28 -68.5t-68 -28.5t-68.5 28.5t-28.5 68.5z" />
    <glyph glyph-name="uniE61F" unicode="&#xe61f;" 
d="M835 747h-644q-52 0 -89 -37t-37 -89v-89q0 -13 9 -22.5t22 -9.5t22 9.5t9 22.5v89q0 26 19 44.5t45 18.5h644q26 0 44 -18.5t18 -44.5v-123q-110 -6 -208.5 -50t-176.5 -121q-70 -71 -112 -157q-60 45 -134 49t-139 -33v159q0 13 -9 22.5t-22 9.5t-22 -9.5t-9 -22.5
v-368q0 -51 37 -87.5t89 -36.5h644q52 0 88 36.5t36 87.5v644q0 52 -36.5 89t-87.5 37zM127 -23v132q53 48 124 48t123 -47q-33 -92 -33 -195h-150q-26 0 -45 18.5t-19 43.5zM835 -85h-432q1 104 40.5 199t113.5 169q68 68 155.5 107.5t184.5 44.5v-458q0 -26 -18 -44
t-44 -18zM436 503q0 49 -34.5 83.5t-83.5 34.5t-83.5 -34.5t-34.5 -83.5t34.5 -83.5t83.5 -34.5t83.5 34.5t34.5 83.5zM262 503q0 23 16.5 39.5t39.5 16.5t39.5 -16.5t16.5 -39.5t-16.5 -39.5t-39.5 -16.5t-39.5 16.5t-16.5 39.5z" />
    <glyph glyph-name="uniE620" unicode="&#xe620;" 
d="M673 321.5q0 60.5 -29 101t-70 62.5v167q0 28 -23 43q-13 9 -29 9q-10 0 -20 -4q-6 -3 -35 -26.5t-190 -160.5h-97q-36 0 -62.5 -25.5t-26.5 -60.5v-219q0 -35 26.5 -60t62.5 -25h89q169 -136 199 -159.5t37 -25.5q8 -3 17 -3q16 0 29 8q21 14 23 40v171q41 23 70 65
t29 102.5zM143 208v219q0 13 11 23.5t26 10.5h89v-286h-89q-15 0 -26 10t-11 23zM522 -13q-1 0 -222 184v294q221 187 222 187v-665zM553 202v235q68 -37 68 -115.5t-68 -119.5zM736 142q-11 0 -19 9q-20 23 0 48q46 60 46 124q0 61 -46 123q-19 26 -1 47q11 10 21 10
q9 0 21 -9q64 -73 64 -171t-64 -171q-7 -10 -22 -10zM841 19q-11 0 -21 9q-9 11 -9 25t9 24q86 98 86 245.5t-86 245.5q-9 10 -9 24t9 24q10 10 21 10t20 -9q50 -57 77 -133t27 -161.5t-27 -161t-77 -132.5q-8 -10 -20 -10z" />
    <glyph glyph-name="uniE621" unicode="&#xe621;" 
d="M800 -187h-581q-42 0 -88.5 43t-46.5 92v549q0 46 38.5 90.5t84.5 44.5h73v-130h458v130h65q49 0 90.5 -39.5t41.5 -95.5v-553q0 -57 -42 -94t-93 -37v0zM772 354q0 7 -5 11.5t-12 4.5h-491q-7 0 -11.5 -4.5t-4.5 -11.5v-33q0 -7 4.5 -11.5t11.5 -4.5h491q7 0 12 4.5
t5 11.5v33zM772 190q0 7 -5 11.5t-12 4.5h-491q-7 0 -11.5 -4.5t-4.5 -11.5v-33q0 -6 4.5 -11t11.5 -5h491q7 0 12 5t5 11v33zM772 26q0 7 -5 12t-12 5h-491q-7 0 -11.5 -5t-4.5 -12v-32q0 -7 4.5 -12t11.5 -5h491q7 0 12 5t5 12v32zM476 567h-130v131h65q0 27 19 46t46 19
h66q27 0 46 -19t19 -46h66v-131h-197zM509 708q-17 0 -29 -12t-12 -29t12 -29t29 -12t29 12t12 29t-12 29t-29 12v0z" />
    <glyph glyph-name="uniE622" unicode="&#xe622;" 
d="M98 -2q0 118 64.5 216t170.5 147q81 -52 178 -52q98 0 179 53q106 -50 171 -148t65 -216q0 -34 -46 -61t-119 -41.5t-161 -21t-176 0t-161 20.5t-119 41t-46 62zM708 433.5q-39 -38.5 -90 -59t-106.5 -20.5t-106.5 20.5t-90 59t-60.5 88t-21.5 103.5t21.5 104t60.5 88
t90 58.5t106.5 20.5t106.5 -20.5t90 -58.5t60 -88t21 -104t-21 -103.5t-60 -88z" />
    <glyph glyph-name="uniE623" unicode="&#xe623;" 
d="M832 191q-59 0 -101 -42t-42 -101.5t42 -101.5t101 -42t101 42t42 101.5t-42 101.5t-101 42zM926 85q-102 -102 -103 -102q-14 -14 -23 -4l-61 61q-10 10 0 20t20 0l50 -50l97 95q11 10 20.5 0t-0.5 -20v0zM359 767h218q18 0 30.5 14t12.5 34.5t-13 34.5t-31 14h-217
q-19 0 -31.5 -14t-12.5 -34.5t12.5 -34.5t31.5 -14zM816 235q37 0 71 -15v481q0 51 -27.5 81t-81.5 30h-99q2 -9 2 -16q0 -31 -19.5 -56t-45.5 -25h-302q-27 0 -47 25t-20 56q0 8 2 16h-100q-56 0 -78 -28.5t-22 -82.5v-652q0 -55 25 -83t81 -28h522q-42 51 -42 116
q0 75 53 128t128 53zM260 564h427q12 0 20.5 -9t9.5 -22q0 -12 -10 -22.5t-22 -10.5h-429q-11 0 -18 10t-7 23q0 12 8.5 21.5t20.5 9.5zM452 134h-196q-11 0 -18 10t-7 23q0 12 8.5 22t20.5 10h194q12 0 20.5 -9.5t9.5 -22.5q0 -12 -10 -22.5t-22 -10.5zM255 314
q-12 0 -22 11.5t-10 24.5q0 11 8.5 20t20.5 9h427q12 0 21 -8.5t10 -20.5q0 -13 -8 -24.5t-19 -11.5h-428zM255 314z" />
    <glyph glyph-name="uniE624" unicode="&#xe624;" 
d="M76 529h872l-386 207h-5q17 33 17 64q0 25 -18 43t-44 18t-44 -18t-18 -43q0 -27 17 -64h-7zM35 -10v-83h954v83h-954zM162 404h-2v-290h2l-44 -51v-74h789v73l-42 52h1v290h-1l41 41h42v83h-872v-83h48zM658 404h124v-289h-124v289zM451 404h123v-289h-123v289zM242 404
h125v-289h-125v289z" />
    <glyph glyph-name="uniE625" unicode="&#xe625;" 
d="M902 817h-783q-31 0 -53 -20.5t-22 -51.5v-719q0 -31 22 -53t53 -22h789q31 0 51.5 22t20.5 53v719q0 31 -23 51.5t-55 20.5zM346 711q47 0 80.5 -33.5t33.5 -81t-33.5 -81.5t-81 -34t-81 34t-33.5 81.5t33.5 81t81.5 33.5zM149 42q-13 0 -24 9q-12 10 -13 25.5t9 27.5
l172 259q10 11 24.5 12.5t26.5 -7.5l151 -112l272 309q6 7 14 15t23 18t28.5 13t29 -6.5t27.5 -33.5v-59v-172v-298h-738h-2z" />
    <glyph glyph-name="uniE626" unicode="&#xe626;" 
d="M762 693q-7 0 -11.5 5t-4.5 12t5 11l144 145q5 5 12 5t12 -5t5 -11.5t-5 -11.5l-145 -145q-5 -5 -12 -5zM889 624q-7 0 -11.5 5t-4.5 12t5 12l47 46q5 5 12 5t11.5 -5t4.5 -12t-5 -12l-47 -46q-5 -5 -12 -5zM110 114q-7 0 -11.5 5t-4.5 11.5t5 11.5l63 64q5 5 12 5t12 -5
t5 -12t-5 -12l-64 -63q-5 -5 -12 -5zM25 30q-7 0 -12 5t-5 12t5 11l38 38q5 5 12 5t11.5 -5t4.5 -12t-5 -11l-38 -38q-4 -5 -11 -5zM1002 436q22 25 12 55q-11 30 -42 37l-247 52q-14 3 -21 15l-126 218q-16 28 -48 28q-34 0 -49 -28l-127 -218q-6 -12 -20 -15l-247 -52
q-32 -8 -41 -37q-11 -32 11 -55l170 -188q9 -10 7 -23l-26 -250q-4 -33 22 -51q26 -20 56 -6l231 102q13 5 25 0l231 -102q11 -6 23 -6q18 0 33 11q25 18 22 51l-26 251q-1 13 8 23z" />
    <glyph glyph-name="uniE627" unicode="&#xe627;" 
d="M840 832q25 0 46.5 -9.5t37.5 -26t25.5 -38t9.5 -45.5v-657q0 -25 -9.5 -46.5t-25.5 -37.5t-37.5 -25.5t-46.5 -9.5h-657q-25 0 -46 9.5t-37.5 25.5t-26 37.5t-9.5 46.5v657q0 24 9.5 45.5t26 38t38 26t45.5 9.5h657zM240 30q18 0 34 6.5t28 18.5t18.5 28.5t6.5 34.5
t-6.5 34t-18.5 28t-28 19t-34 7q-19 0 -35 -7t-28.5 -19t-19 -28t-6.5 -34t6.5 -34.5t19 -28.5t28.5 -18.5t35 -6.5zM480 55h35q14 0 28 -0.5t29 -0.5t34 1q0 87 -33.5 163.5t-90.5 134t-134 90.5t-164 33q-1 -23 -1 -37v-27q0 -13 0.5 -27t0.5 -35q61 0 115 -23t94 -63
t63.5 -94t23.5 -115v0zM724 57q34 0 45.5 -0.5t17 -1.5t14.5 -1t39 2q0 135 -51.5 254t-140.5 208t-208 140.5t-255 51.5q-1 -24 -1 -35v-15q0 -4 0.5 -5.5t0.5 -6.5t0.5 -17t0.5 -38q112 0 210 -42t171 -115t115 -170.5t42 -208.5v0zM724 57z" />
    <glyph glyph-name="uniE628" unicode="&#xe628;" 
d="M957 633q-7 42 -44 50h-3h-18h-2h-32h-2h-2q-9 -1 -15.5 -8.5t-6.5 -17.5v-9q0 -10 6.5 -17t15.5 -9h3h1h32h1h6q1 -6 0 -11v-2v-644q-2 -28 -19 -42q-8 -6 -17 -8h-50q-28 2 -39 25q-6 14 -6 30v1v669q3 56 -27 85q-25 24 -60 22h-531h-1q-36 0 -58 -25q-27 -31 -24 -84
v-667q-1 -28 11 -54q26 -59 98 -64h1h692l2 1q22 3 44 18q42 31 45 90v1v642q1 14 -1 28zM177 -85q-33 2 -44 25q-7 13 -6 28v1v672v2q-3 26 8 38q4 4 13 4h532h1l2 1q9 0 14 -6q10 -9 8 -37v-1v-670q-1 -30 11 -57h-539zM639 589q0 -13 -9.5 -22.5t-22.5 -9.5h-384
q-13 0 -22.5 9.5t-9.5 22.5t9.5 22.5t22.5 9.5h384q13 0 22.5 -9.5t9.5 -22.5zM639 150q0 -17 -12 -29t-29 -12h-110q-17 0 -29 12t-12 29v300q0 17 12 29t29 12h110q17 0 29 -12t12 -29v-300zM382 141q0 -13 -9 -22.5t-23 -9.5h-129q-13 0 -22.5 9.5t-9.5 22.5t9.5 22.5
t22.5 9.5h129q14 0 23 -9.5t9 -22.5zM382 267q0 -14 -9 -23t-23 -9h-129q-13 0 -22.5 9t-9.5 23q0 13 9.5 22.5t22.5 9.5h129q14 0 23 -9.5t9 -22.5zM639 10q0 -12 -9 -21t-22 -9h-387q-12 0 -21 9t-9 21q0 13 9 22t21 9h387q13 0 22 -9t9 -22zM382 406q0 -17 -11.5 -29
t-28.5 -12h-110q-17 0 -29 12t-12 29v44q0 17 12 29t29 12h110q17 0 28.5 -12t11.5 -29v-44z" />
    <glyph glyph-name="uniE629" unicode="&#xe629;" 
d="M233 86q0 -31 21.5 -52.5t52.5 -21.5h577q31 0 53 21.5t22 52.5v428q0 31 -22 53t-53 22h-223q-15 0 -26 11t-11 26t11 26t26 11h251q20 0 33.5 14t13.5 33t-13.5 32.5t-33.5 13.5h-307q-26 0 -47 -15.5t-27 -39.5l-37 -112h-77q-37 0 -63 -26l-94 -94q-27 -28 -27 -66
v-56h-75v9q0 19 -13.5 33t-33 14t-33 -14t-13.5 -33v-242q0 -19 13.5 -33t33 -14t33 14t13.5 33v9h75v-37zM478 291h347q17 0 29 -12t12 -29v-104q0 -17 -12 -29t-29 -12h-347q-17 0 -28.5 12t-11.5 29v104q0 17 11.5 29t28.5 12zM438 449q0 19 13.5 33t32.5 14t33 -14
t14 -33t-14 -32.5t-33 -13.5t-32.5 13.5t-13.5 32.5z" />
    <glyph glyph-name="uniE62A" unicode="&#xe62a;" 
d="M867 611q-9 10 -22 10t-22.5 -9.5t-9.5 -22.5t9 -23q74 -73 74 -182q0 -104 -74 -182q-9 -10 -9 -23t9.5 -22.5t22.5 -9.5t22 10q93 93 93 227t-93 227zM774 518q-9 10 -22 10t-22.5 -9.5t-9.5 -22.5t10 -22q38 -39 38 -90q0 -56 -38 -90q-10 -9 -10 -22t9.5 -22.5
t22.5 -9.5t22 10q58 57 58 134q0 38 -15.5 74t-42.5 60zM557 752l-237 -144v-448l237 -144q33 -21 58 -7.5t25 52.5v643q0 40 -25 54t-58 -6zM64 512v-256q0 -41 27.5 -68.5t68.5 -27.5h96v448h-96q-41 0 -68.5 -27.5t-27.5 -68.5z" />
    <glyph glyph-name="uniE62B" unicode="&#xe62b;" 
d="M914 95l-66 315h-671l-69 -317q-16 -51 7 -84q22 -31 72 -31h19v49h-19q-24 0 -31 11q-10 14 -1 40l47 213l81 -442q0 -2 1.5 -6t7 -14.5t13 -18.5t20.5 -14.5t30 -6.5h318q17 0 31 6t21 15t12 17.5t7 14.5l1 6l79 433l41 -198l1 -3q3 -7 3.5 -18t-4.5 -24
q-8 -11 -33 -11h-16v-49h16q51 0 74 31q25 35 8 86zM665 148l-67 -65l16 -90q1 -10 -6.5 -14.5t-15.5 1.5l-79 41l-81 -43q-8 -4 -14.5 -0.5t-5.5 13.5l16 92l-65 63q-9 8 -6 15t14 9l89 13q19 37 35 71q9 16 18.5 16t17.5 -16l34 -71l94 -14q23 -3 6 -21zM577 458h-268v8
q-13 112 -48 178q-12 -12 -22 5l-42 88l86 50l58 -78q6 -8 5.5 -13t-4.5 -8l-3 -3q18 -42 51 -77t64 -55.5t67.5 -46.5t55.5 -48z" />
    <glyph glyph-name="uniE62C" unicode="&#xe62c;" 
d="M919 865q-143 -69 -242 -69q-48 0 -127 20t-134 39l-55 20q-74 21 -105 21q-93 0 -167 -53q-8 -7 -13.5 -21.5t-7.5 -24.5l-2 -10v-892q13 -23 30 -23q7 1 14 5.5t10 9.5l3 4v398q1 3 2 8t8 17t18 21t32.5 16t49.5 6q62 0 133 -26q171 -61 327 -61q86 0 152 14t92 38
q8 8 13.5 28t6.5 37l1 16v436q0 2 -0.5 4.5t-2.5 9t-6 9.5t-11.5 6t-18.5 -3z" />
    <glyph glyph-name="uniE62D" unicode="&#xe62d;" 
d="M941 880l-10 -10q-20 -19 -30 -27.5t-30 -21.5t-37 -16.5t-45 -6.5t-60 2t-77 16t-100 30q-105 35 -211 31q-85 -3 -167 -32q-93 -33 -149 -80q-3 -2 -5 -5q-10 -7 -13.5 -18t1.5 -23l370 -828q5 -12 17.5 -17t24.5 0.5t17 18t0 24.5l-154 339q0 1 1 3t2 3l14 26
q4 8 13.5 23.5t17.5 24t21 21.5t26.5 20t31.5 16t39.5 13t47.5 7.5t58 3.5t68 -4q68 -6 132 22q3 2 7 4q58 27 108 82q82 89 127 217q16 48 20 84q6 51 -19 68q-28 17 -57 -10z" />
    <glyph glyph-name="uniE62E" unicode="&#xe62e;" 
d="M714 799q22 0 33 -10q9 -9 9 -24q0 -36 -36 -69q-24 -22 -59.5 -37t-63.5 -15q-5 0 -9 0.5t-6 1.5h-2q-7 13 7.5 51.5t44.5 66.5q38 35 82 35zM714 872q-73 0 -131 -55q-53 -49 -71.5 -117t17.5 -107q24 -22 68 -22q42 0 90.5 20t82.5 52q49 46 57 104.5t-31 94.5
q-32 30 -82 30v0zM341 799q44 0 82 -35q30 -28 44.5 -66.5t8.5 -50.5q-7 -3 -18 -3q-28 0 -63.5 15t-59.5 37q-35 33 -35 69q0 15 8 24q11 10 33 10zM341 872q-50 0 -82 -30q-39 -36 -31 -94.5t57 -104.5q34 -32 82.5 -52t90.5 -20q44 0 68 22q36 39 17.5 107t-71.5 117
q-58 55 -131 55v0zM956 285v250q0 30 -21 51t-50 21h-322v-322h393zM563 214v-322h322q29 0 50 21t21 51v250h-393zM492 285v322h-322q-29 0 -50 -21t-21 -51v-250h393zM99 214v-250q0 -30 21 -51t50 -21h322v322h-393z" />
    <glyph glyph-name="uniE62F" unicode="&#xe62f;" 
d="M910 575q0 60 -34 106.5t-85 59.5v122h-562v-122q-51 -13 -84.5 -59.5t-33.5 -106.5q0 -67 40 -115.5t99 -53.5q32 -78 102.5 -126.5t157.5 -48.5t157.5 48.5t102.5 126.5q59 5 99.5 53.5t40.5 115.5zM143 575q0 46 24.5 82.5t61.5 49.5v-195q0 -36 9 -71q-41 9 -68 47
t-27 87zM607 429l-97 51l-97 -51l19 108l-79 77l109 15l48 99l49 -99l108 -15l-79 -77zM782 441q9 35 9 71v195q38 -13 62 -49.5t24 -82.5q0 -49 -27 -87t-68 -47zM642 56h-77v124h-110v-124h-77q-11 0 -19.5 -8.5t-8.5 -20.5l-14 -90q0 -12 8 -20t20 -8h292q12 0 20 8t8 20
l-14 90q0 12 -8 20.5t-20 8.5z" />
  </font>
</defs>
</svg>
